[2023] [日本] [动作] [WEB-1080P] 物物语 Part 2[第09集][中文字幕].Mononogatari.2023.S02.1080p.KKTV.WEB-DL.x264.AAC-Huawei 0

[2023] [日本] [动作] [WEB-1080P] 物物语 Part 2[第09集][中文字幕].Mononogatari.2023.S02.1080p.KKTV.WEB-DL.x264.AAC-Huawei 0

-->

完整标题:物物语 Part 2[第09集][中文字幕].Mononogatari.2023.S02.1080p.KKTV.WEB-DL.x264.AAC-Huawei 0.56GB



◎标  题 物物语 Part 2
◎译  名 物之古物奇谭 第二季度
◎片  名 もののがたり 第二章
◎年  代 2023
◎产  地 日本
◎类  别 动作 / 爱情 / 动画 / 奇幻
◎语  言 日语
◎IMDb链接 https://www.imdb.com/title//
◎豆瓣链接 https://movie.douban.com/subject/36338793/
◎导  演 木村隆一 Kimura Ryūichi
◎编  剧 大知庆一郎 Oochi Keiichirou
◎演  员 大塚刚央 Takeo Otsuka
      高田忧希 Yûki Takada
      泽城美雪 Miyuki Sawashiro
      小林亲弘 Chikahiro Kobayashi
      上田丽奈 Reina Ueda
      中岛良树 Yoshiki Nakajima
      田中爱美 Aimi Tanaka
      大西沙织 Saori Oonishi
      金光宣明 Kanemitsu Nobuaki
      家中宏 Hiroshi Yanaka
      高桥英则 Hidenori Takahashi
      潘惠美 Megumi Han
      楠大典 Taiten Kusunoki
      水川麻美 Asami Mizukawa

◎简  介
    电视动画《物之古物奇谭 / 物物语》公开告知 PV,该作将于 2023 年 7 月开始播出第二季度,详情待后续发表!

##### MediaInfo ######
General
Unique ID : 4257935163351066026200215879936899994 (0x3340C6965B7CF8D48411EFBCE6FFB9A)
Complete name : Mononogatari.2023.S02E09.1080p.KKTV.WEB-DL.x264.AAC-Huawei.mkv
Format : Matroska
Format version : Version 4
File size : 576 MiB
Duration : 23 min 40 s
Overall bit rate : 3 404 kb/s
Encoded date : UTC 2023-08-28 18:59:12
Writing application : mkvmerge v68.0.0 ('The Curtain') 64-bit
Writing library : libebml v1.4.2 + libmatroska v1.6.4

Video
ID : 1
Format : AVC
Format/Info : Advanced Video Codec
Format profile : [email protected]
Format settings : CABAC / 5 Ref Frames
Format settings, CABAC : Yes
Format settings, Reference frames : 5 frames
Codec ID : V_MPEG4/ISO/AVC
Duration : 23 min 40 s
Bit rate : 3 196 kb/s
Width : 1 920 pixels
Height : 1 080 pixels
Display aspect ratio : 16:9
Frame rate mode : Constant
Frame rate : 23.976 (24000/1001) FPS
Color space : YUV
Chroma subsampling : 4:2:0
Bit depth : 8 bits
Scan type : Progressive
Bits/(Pixel*Frame) : 0.064
Stream size : 543 MiB (94%)
Writing library : x264 core 142
Encoding settings : cabac=1 / ref=5 / deblock=1:0:0 / analyse=0x3:0x113 / me=umh / subme=9 / psy=1 / psy_rd=1.00:0.00 / mixed_ref=1 / me_range=32 / chroma_me=1 / trellis=1 / 8x8dct=1 / cqm=0 / deadzone=21,11 / fast_pskip=1 / chroma_qp_offset=-2 / threads=12 / lookahead_threads=1 / sliced_threads=0 / nr=0 / decimate=1 / interlaced=0 / bluray_compat=0 / stitchable=1 / constrained_intra=0 / bframes=3 / b_pyramid=2 / b_adapt=1 / b_bias=0 / direct=3 / weightb=1 / open_gop=0 / weightp=2 / keyint=24 / keyint_min=2 / scenecut=0 / intra_refresh=0 / rc_lookahead=35 / rc=abr / mbtree=1 / bitrate=3196 / ratetol=1.0 / qcomp=0.60 / qpmin=0 / qpmax=69 / qpstep=4 / vbv_maxrate=4794 / vbv_bufsize=7191 / nal_hrd=none / filler=0 / ip_ratio=1.40 / aq=1:1.00
Default : Yes
Forced : No

Audio
ID : 2
Format : AAC LC
Format/Info : Advanced Audio Codec Low Complexity
Codec ID : A_AAC-2
Duration : 23 min 40 s
Bit rate : 192 kb/s
Channel(s) : 2 channels
Channel layout : L R
Sampling rate : 44.1 kHz
Frame rate : 43.066 FPS (1024 SPF)
Compression mode : Lossy
Stream size : 32.5 MiB (6%)
Title : Japanese
Language : Japanese
Default : Yes
Forced : No

点击图片可查看大图

软字幕无法在截图上展现,HDR版本/杜比视界版本截图会出现颜色异常,请使用支持的设备播放!

部分资源为软字幕,移动端推荐播放器:MxPlayer,nPlayer,infuse ,其他播放器请自行尝试。

部分资源为软字幕,电脑端推荐播放器:PotPlayer,完美解码,KMPLAYER,其他播放器请自行尝试。


同类推荐