[2023] [大陆] [真人秀] [WEB-4K] 现在就出发[第03集][上][下][国语配音/中文字幕].Xian.Zai.Jiu.Chu.Fa.2023.S01.2160p.WEB-DL.H265.AAC-

[2023] [大陆] [真人秀] [WEB-4K] 现在就出发[第03集][上][下][国语配音/中文字幕].Xian.Zai.Jiu.Chu.Fa.2023.S01.2160p.WEB-DL.H265.AAC-

-->

完整标题:现在就出发[第03集][上][下][国语配音/中文字幕].Xian.Zai.Jiu.Chu.Fa.2023.S01.2160p.WEB-DL.H265.AAC-Huawei 5.63GB



◎标  题 现在就出发
◎年  代 2023
◎产  地 中国大陆
◎类  别 真人秀
◎语  言 汉语普通话
◎IMDb链接 https://www.imdb.com/title//
◎豆瓣链接 https://movie.douban.com/subject/36228081/
◎演  员 沈腾 Teng Shen
      白敬亭 Jingting Bai
      范丞丞 Chengcheng Fan
      金晨 Gina Jin
      贾冰 Bing Jia
      白举纲 Jugang Bai
      贾乃亮 Nailiang Jia
      艾伦 Allen
      周也 Ye Zhou
      魏大勋 Daxun Wei
      刘昊然 Haoran Liu

◎简  介
    《现在就出发》聚焦沈腾与朋友们的快乐野游,将有新老朋友不断加入。

##### MediaInfo ######
General
Complete name : Xian.Zai.Jiu.Chu.Fa.2023.S01E03.Part1.2160p.WEB-DL.H265.AAC-Huawei.mp4
Format : MPEG-4
Format profile : Base Media
Codec ID : isom (isom/iso2/mp41)
File size : 3.24 GiB
Duration : 1 h 31 min
Overall bit rate : 5 070 kb/s
Recorded date : 2023-08-28T20:59:15.8811892+08:00
Writing application : Lavf58.35.100

Video
ID : 1
Format : HEVC
Format/Info : High Efficiency Video Coding
Format profile : Main@L5@Main
Codec ID : hev1
Codec ID/Info : High Efficiency Video Coding
Duration : 1 h 31 min
Bit rate : 4 938 kb/s
Width : 3 840 pixels
Height : 2 160 pixels
Display aspect ratio : 16:9
Frame rate mode : Variable
Frame rate : 25.000 FPS
Minimum frame rate : 24.993 FPS
Maximum frame rate : 25.007 FPS
Color space : YUV
Chroma subsampling : 4:2:0
Bit depth : 8 bits
Bits/(Pixel*Frame) : 0.024
Stream size : 3.16 GiB (97%)
Color range : Limited
Color primaries : BT.709
Transfer characteristics : BT.709
Matrix coefficients : BT.709
Codec configuration box : hvcC

Audio
ID : 2
Format : AAC LC
Format/Info : Advanced Audio Codec Low Complexity
Codec ID : mp4a-40-2
Duration : 1 h 31 min
Bit rate mode : Constant
Bit rate : 125 kb/s
Channel(s) : 2 channels
Channel layout : L R
Sampling rate : 48.0 kHz
Frame rate : 46.875 FPS (1024 SPF)
Compression mode : Lossy
Stream size : 82.1 MiB (2%)
Default : Yes
Alternate group : 1

点击图片可查看大图

软字幕无法在截图上展现,HDR版本/杜比视界版本截图会出现颜色异常,请使用支持的设备播放!

部分资源为软字幕,移动端推荐播放器:MxPlayer,nPlayer,infuse ,其他播放器请自行尝试。

部分资源为软字幕,电脑端推荐播放器:PotPlayer,完美解码,KMPLAYER,其他播放器请自行尝试。


同类推荐