[2023] [大陆] [其它] [WEB-1080P] 山海经奇[第02集][国语配音/中文字幕].A.Hazy.Dream.World.from.Ancient.China.2023.S01.1080p.WEB-D

[2023] [大陆] [其它] [WEB-1080P] 山海经奇[第02集][国语配音/中文字幕].A.Hazy.Dream.World.from.Ancient.China.2023.S01.1080p.WEB-D

-->

完整标题:山海经奇[第02集][国语配音/中文字幕].A.Hazy.Dream.World.from.Ancient.China.2023.S01.1080p.WEB-DL.H264.AAC-Huawei 0.65GB



◎标  题 山海经奇
◎译  名 山海经 / A Hazy Dream World from Ancient China
◎年  代 2023
◎产  地 中国大陆
◎类  别 纪录片
◎语  言 汉语普通话
◎IMDb链接 https://www.imdb.com/title//
◎豆瓣链接 https://movie.douban.com/subject/27182686/
◎导  演 金明哲 Mingzhe Jin
◎演  员 罗逸桥 Yiqiao Luo

◎简  介
    奇兽、奇人、奇事。   取材于上古奇书《山海经》里的神话传说故事,纪录片《山海经奇》自带中国人骨髓里奇幻浪漫的气质:女娲造人、烛龙睁眼为昼、羲和浴日、羿射九日、嫦娥奔月、夔皮作鼓等远古恢弘的传奇故事,都隐藏着先人刻骨铭心的告诫;那些家喻户晓的英雄人物,都蕴含着中华祖先前仆后继的血脉凝聚。   《山海经奇》 是由中央广播电视总台(China Media Group)影视剧纪录片中心出品的纪录片。2023年2月17日,该片亮相纪录·时代答卷——2023年“大片看总台”发布活动。

##### MediaInfo ######
General
Complete name : 山海经奇.A.Hazy.Dream.World.from.Ancient.China.2023.S01E02.1080p.WEB-DL.H264.AAC-Huawei.mp4
Format : MPEG-4
Format profile : Base Media
Codec ID : isom (isom/iso2/avc1/mp41)
File size : 660 MiB
Duration : 24 min 40 s
Overall bit rate : 3 740 kb/s
Description : Packed by Bilibili XCoder v2.0.2
Writing application : Lavf59.16.100

Video
ID : 1
Format : AVC
Format/Info : Advanced Video Codec
Format profile : High@L5
Format settings : CABAC / 6 Ref Frames
Format settings, CABAC : Yes
Format settings, Reference frames : 6 frames
Codec ID : avc1
Codec ID/Info : Advanced Video Coding
Duration : 24 min 40 s
Bit rate : 3 557 kb/s
Width : 1 920 pixels
Height : 1 080 pixels
Display aspect ratio : 16:9
Frame rate mode : Constant
Frame rate : 25.000 FPS
Color space : YUV
Chroma subsampling : 4:2:0
Bit depth : 8 bits
Scan type : Progressive
Bits/(Pixel*Frame) : 0.069
Stream size : 627 MiB (95%)
Color range : Limited
Color primaries : BT.709
Transfer characteristics : BT.709
Matrix coefficients : BT.709
Codec configuration box : avcC

Audio
ID : 2
Format : AAC LC
Format/Info : Advanced Audio Codec Low Complexity
Codec ID : mp4a-40-2
Duration : 24 min 40 s
Bit rate mode : Constant
Bit rate : 178 kb/s
Channel(s) : 2 channels
Channel layout : L R
Sampling rate : 48.0 kHz
Frame rate : 46.875 FPS (1024 SPF)
Compression mode : Lossy
Stream size : 31.3 MiB (5%)
Default : Yes
Alternate group : 1

点击图片可查看大图

软字幕无法在截图上展现,HDR版本/杜比视界版本截图会出现颜色异常,请使用支持的设备播放!

部分资源为软字幕,移动端推荐播放器:MxPlayer,nPlayer,infuse ,其他播放器请自行尝试。

部分资源为软字幕,电脑端推荐播放器:PotPlayer,完美解码,KMPLAYER,其他播放器请自行尝试。


同类推荐