[2023] [大陆] [真人秀] [WEB-1080P] 快乐的大人[第10集][国语配音/中文字幕].Kuai.Le.De.Da.Ren.2023.S01.1080p.WEB-DL.H264.AAC-Huawei 1

[2023] [大陆] [真人秀] [WEB-1080P] 快乐的大人[第10集][国语配音/中文字幕].Kuai.Le.De.Da.Ren.2023.S01.1080p.WEB-DL.H264.AAC-Huawei 1

-->

完整标题:快乐的大人[第10集][国语配音/中文字幕].Kuai.Le.De.Da.Ren.2023.S01.1080p.WEB-DL.H264.AAC-Huawei 1.59GB



◎标  题 快乐的大人
◎译  名 野居一家
◎年  代 2023
◎产  地 中国大陆
◎类  别 真人秀
◎语  言 汉语普通话
◎IMDb链接 https://www.imdb.com/title//
◎豆瓣评分 9.4/10 (11578人评价)
◎豆瓣链接 https://movie.douban.com/subject/36369442/
◎演  员 沈月 Yue Shen
      王敬轩 Jingxuan Wang
      吴宇恒 Yuheng Wu
      周彦辰 Yanchen Zhou

◎简  介
    节目以沈月、王敬轩、吴宇恒、周彦辰为核心的原生好友圈为主,通过让嘉宾自行策划并制作自己的节目为切口,共同寻找当代年轻人“快乐生活”的秘诀,鼓励更多年轻人一起做快乐的大人。

##### MediaInfo ######
General
Complete name : 快乐的大人.Kuai.Le.De.Da.Ren.2023.S01E10.1080p.WEB-DL.H264.AAC-Huawei.mp4
Format : MPEG-4
Format profile : Base Media
Codec ID : isom (isom/iso2/avc1/mp41)
File size : 1.59 GiB
Duration : 1 h 15 min
Overall bit rate mode : Variable
Overall bit rate : 3 014 kb/s
Recorded date : 2023-08-29T06:36:38.7370834+08:00
Writing application : Lavf58.32.104

Video
ID : 1
Format : AVC
Format/Info : Advanced Video Codec
Format profile : High@L4
Format settings : CABAC / 4 Ref Frames
Format settings, CABAC : Yes
Format settings, Reference frames : 4 frames
Codec ID : avc1
Codec ID/Info : Advanced Video Coding
Duration : 1 h 15 min
Bit rate : 2 818 kb/s
Width : 1 920 pixels
Height : 1 080 pixels
Display aspect ratio : 16:9
Frame rate mode : Constant
Frame rate : 25.000 FPS
Color space : YUV
Chroma subsampling : 4:2:0
Bit depth : 8 bits
Scan type : Progressive
Bits/(Pixel*Frame) : 0.054
Stream size : 1.49 GiB (93%)
Writing library : 211111.mgtv.com
Codec configuration box : avcC

Audio
ID : 2
Format : AAC LC
Format/Info : Advanced Audio Codec Low Complexity
Codec ID : mp4a-40-2
Duration : 1 h 15 min
Bit rate mode : Variable
Bit rate : 192 kb/s
Maximum bit rate : 205 kb/s
Channel(s) : 2 channels
Channel layout : L R
Sampling rate : 44.1 kHz
Frame rate : 43.066 FPS (1024 SPF)
Compression mode : Lossy
Stream size : 102 MiB (6%)
Default : Yes
Alternate group : 1

点击图片可查看大图

软字幕无法在截图上展现,HDR版本/杜比视界版本截图会出现颜色异常,请使用支持的设备播放!

部分资源为软字幕,移动端推荐播放器:MxPlayer,nPlayer,infuse ,其他播放器请自行尝试。

部分资源为软字幕,电脑端推荐播放器:PotPlayer,完美解码,KMPLAYER,其他播放器请自行尝试。


同类推荐