[2023] [大陆] [爱情] [WEB-1080P] 蜂巢[第07-08集][国语配音/中文字幕].The.Nest.S01.2023.1080p.WEB-DL.H264.AAC-BlackTV 1.41GB

[2023] [大陆] [爱情] [WEB-1080P] 蜂巢[第07-08集][国语配音/中文字幕].The.Nest.S01.2023.1080p.WEB-DL.H264.AAC-BlackTV 1.41GB

-->

完整标题:蜂巢[第07-08集][国语配音/中文字幕].The.Nest.S01.2023.1080p.WEB-DL.H264.AAC-BlackTV 1.41GB



◎标  题 蜂巢
◎年  代 2023
◎产  地 中国大陆
◎类  别 爱情
◎语  言 汉语普通话
◎IMDb链接 https://www.imdb.com/title//
◎豆瓣链接 https://movie.douban.com/subject/27663758/
◎导  演 周靖韬 Yuanzhou Zhou
◎编  剧 师良 Liang Shi
◎演  员 韩栋 Dong Han
      宋轶 Yi Song
      严米拉 Mila Yan
      樊星
      姚刚 Gang Yao
      万妮恩 Ni'en Wan
      吴弘 Hong Wu
      程诚 Cheng Cheng
      赵尧珂 Yaoke Zhao
      张力文 Liwen Zhang
      丁嘉文 Jiawen Ding
      姜健 Jian Jiang
      冷海铭 Marco Leng

◎简  介
    1933年1月,日军攻陷山海关,3月占领承德,华北抗日形势岌岌可危。上海多国势力胶着,暗流涌动。青山军校特工顾盼,与田桥洁和恋人谭仲文配合,完成恩师蒲丛的任务后,被秘密安排只身一人去完成以日本经济司司长神谷浩二为目标的暗杀任务。顾盼负伤完成使命,却遭到蒲丛陷害,身陷囹圄,绝境中被我党优秀战士魏东解救。在魏东的指引下,顾盼历经考验,进入秘密组织“蜂巢”,试图查明自己被陷害的原因。抽丝剥茧之中,真相一点点浮出水面,顾盼不仅查到深藏国民党内部的间谍组织,更一步步地接触到国民政府黑暗腐败的一面。顾盼在追求正义的过程中逐渐向红色革命靠拢,以“海马”为代号化身共产主义战士,与魏东成为搭档。最终摧毁“蜂巢”,破获日军的“暗日计划”。

##### MediaInfo ######
General
Complete name : The.Nest.S01E07.2023.1080p.WEB-DL.H264.AAC-BlackTV.mp4
Format : MPEG-4
Format profile : Base Media
Codec ID : isom (isom/iso2/avc1/mp41)
File size : 710 MiB
Duration : 45 min 40 s
Overall bit rate mode : Variable
Overall bit rate : 2 175 kb/s
Writing application : Lavf59.27.100

Video
ID : 1
Format : AVC
Format/Info : Advanced Video Codec
Format profile : High@L4
Format settings : CABAC / 3 Ref Frames
Format settings, CABAC : Yes
Format settings, Reference frames : 3 frames
Codec ID : avc1
Codec ID/Info : Advanced Video Coding
Duration : 45 min 40 s
Bit rate : 1 978 kb/s
Width : 1 920 pixels
Height : 1 080 pixels
Display aspect ratio : 16:9
Frame rate mode : Constant
Frame rate : 25.000 FPS
Color space : YUV
Chroma subsampling : 4:2:0
Bit depth : 8 bits
Scan type : Progressive
Bits/(Pixel*Frame) : 0.038
Stream size : 646 MiB (91%)
Color range : Limited
Color primaries : BT.709
Transfer characteristics : BT.709
Matrix coefficients : BT.709
Codec configuration box : avcC

Audio
ID : 2
Format : AAC LC
Format/Info : Advanced Audio Codec Low Complexity
Codec ID : mp4a-40-2
Duration : 45 min 40 s
Bit rate mode : Variable
Bit rate : 192 kb/s
Maximum bit rate : 195 kb/s
Channel(s) : 2 channels
Channel layout : L R
Sampling rate : 44.1 kHz
Frame rate : 43.066 FPS (1024 SPF)
Compression mode : Lossy
Stream size : 62.1 MiB (9%)
Default : Yes
Alternate group : 1

点击图片可查看大图

软字幕无法在截图上展现,HDR版本/杜比视界版本截图会出现颜色异常,请使用支持的设备播放!

部分资源为软字幕,移动端推荐播放器:MxPlayer,nPlayer,infuse ,其他播放器请自行尝试。

部分资源为软字幕,电脑端推荐播放器:PotPlayer,完美解码,KMPLAYER,其他播放器请自行尝试。


同类推荐