[2023] [美国] [动作] [WEB-4K] 夺宝奇兵5:命运转盘[DIY简繁]Indiana.Jones.And.The.Dial.Of.Destiny.2023.2160p[Ben The Men]-A

文章顶部单独广告

[2023] [美国] [动作] [WEB-4K] 夺宝奇兵5:命运转盘[DIY简繁]Indiana.Jones.And.The.Dial.Of.Destiny.2023.2160p[Ben The Men]-A

-->


◎译  名 夺宝奇兵5:命运转盘/夺宝奇兵:命运轮盘(港)/夺宝奇兵5/夺宝奇兵5:纹章使者/夺宝奇兵5:印第安纳·琼斯与纹章/印第安纳·琼斯5/印第安纳琼斯:命运轮盘(台)/Indiana Jones 5/Indy 5

◎片  名 Indiana Jones and the Dial of Destiny

◎年  代 2023

◎产  地 美国

◎类  别 动作/冒险

◎语  言 英语/德语/古希腊语

◎上映日期 2023-05-18(戛纳国际电影节)/2023-06-30(美国/中国大陆)

◎IMDb链接 https://www.imdb.com/title/tt1462764/

◎豆瓣评分   7.3/10 from 24342 users

◎豆瓣链接 https://douban.com/subject/3819860/

◎片  长 155分钟

◎导  演 詹姆斯·曼高德 James Mangold

◎编  剧 杰斯·巴特沃斯 Jez Butterworth / 约翰-亨利·巴特沃斯 John-Henry Butterworth / 大卫·凯普 David Koepp / 詹姆斯·曼高德 James Mangold / 乔治·卢卡斯 George Lucas / 菲利普·考夫曼 Philip Kaufman

◎主  演 哈里森·福特 Harrison Ford

       菲比·沃勒-布里奇 Phoebe Waller-Bridge

       安东尼奥·班德拉斯 Antonio Banderas

       凯伦·阿兰 Karen Allen

       约翰·瑞斯-戴维斯 John Rhys-Davies

       香奈特·芮妮·威尔逊 Shaunette Renée Wilson

       托马斯·克莱舒曼 Thomas Kretschmann

       托比·琼斯 Toby Jones

       波伊德·霍布鲁克 Boyd Holbrook

       奥利维尔·里希特斯 Olivier Richters

       伊桑·伊西多尔 Ethann Isidore

       麦斯·米科尔森 Mads Mikkelsen

       马丁·麦克杜格尔 Martin McDougall

       阿拉·萨菲 Alaa Safi

       弗朗西斯·查普曼 Francis Chapman

       纳赛尔·米马齐亚 Nasser Memarzia

       安娜·弗兰科利尼 Anna Francolini

       王琦珮 Gabby Wong 

       阿道弗·玛吉塔 Adolfo Margiotta

       曼努埃尔·克莱因 Manuel Klein

       盖伊·保罗 Guy Paul

       哈里特·斯莱特 Harriet Slater

       阿尔顿·菲茨杰拉德·怀特 Alton Fitzgerald White

       伊恩·波特 Ian Porter

       科里·彼得森 Cory Peterson

       吉尔·温特尼茨 Jill Winternitz

       比利·波斯特莱斯韦特 Billy Postlethwaite

       大卫·米尔斯 David Mills

       加里·范宁 Gary Fannin

       冈纳尔·阿特利·考瑟里 Gunnar Atli Cauthery

       阿隆·冯·安德里安 Aron von Andrian

       亨利·加勒特 Henry Garrett

       埃琳娜·沙雷 Elena Saurel

       迈克·梅萨 Mike Massa

       安东尼·英格鲁伯 Anthony Ingruber

       科拉多·因韦尔尼齐 Corrado Invernizzi

       托斯顿·曼德莱 Thorston Manderlay

       巴兹尔·伊登贝茨 Basil Eidenbenz

       布鲁斯·约翰逊 Bruce Johnson

       威廉·梅雷迪思 William Meredith

       杜兰·布朗 Duran Brown

       马克·基林 Mark Killeen

       布赖尼·米勒 Bryony Miller

       汉娜·昂斯洛 Hannah Onslow

       马丁·巴兰坦 Martin Ballantyne

       斯蒂芬·菲切特 Stephane Fichet

       蕾切尔·郭 Rachel Kwok

       安迪·M·米利根 Andy M Milligan


◎简  介


  故事设定于上世纪60年代,琼斯博士(哈里森·福特 Harrison Ford 饰)即将迎来退休,但来访的故人之女海伦娜(菲比·沃勒-布里奇 Phoebe Waller-Bridge 饰)却打破了他平静的生活,后者希望和他一同寻找能够改变历史走向的宝物“命运转盘”,这也唤起了一段尘封已久的回忆。在二战末期,琼斯曾与纳粹争夺过“命运转盘”。宛如宿命一般,如今他再次被卷入“命运转盘”的争夺,而纳粹的残余势力也卷土重来,觊觎着这件宝物。


Video

ID                             : 1

Format                         : HEVC

Format/Info                    : High Efficiency Video Coding

Format profile                 : Main 10@L5@High

HDR format                     : Dolby Vision, Version 1.0, dvhe.08.06, BL+RPU, HDR10 compatible / SMPTE ST 2094 App 4, Version 1, HDR10+ Profile A compatible

Codec ID                       : V_MPEGH/ISO/HEVC

Duration                       : 2 h 34 min

Bit rate                       : 24.2 Mb/s

Width                          : 3 840 pixels

Height                         : 1 608 pixels

Display aspect ratio           : 2.40:1

Frame rate mode                : Constant

Frame rate                     : 23.976 FPS

Color space                    : YUV

Chroma subsampling             : 4:2:0 (Type 2)

Bit depth                      : 10 bits

Bits/(Pixel*Frame)             : 0.164

Stream size                    : 26.2 GiB (94%)

Title                          : BTM

Language                       : English

Default                        : Yes

Forced                         : No

Color range                    : Limited

Color primaries                : BT.2020

Transfer characteristics       : PQ

Matrix coefficients            : BT.2020 non-constant

Mastering display color primar : BT.2020

Mastering display luminance    : min: 0.0050 cd/m2, max: 1000 cd/m2

Maximum Content Light Level    : 1522 cd/m2

Maximum Frame-Average Light Le : 161 cd/m2


Audio #1

ID                             : 2

Format                         : E-AC-3

Format/Info                    : Enhanced AC-3

Commercial name                : Dolby Digital Plus

Codec ID                       : A_EAC3

Duration                       : 2 h 34 min

Bit rate mode                  : Constant

Bit rate                       : 640 kb/s

Channel(s)                     : 8 channels

Channel layout                 : L R C LFE Ls Rs Lb Rb

Sampling rate                  : 48.0 kHz

Frame rate                     : 31.250 FPS (1536 SPF)

Compression mode               : Lossy

Stream size                    : 708 MiB (2%)

Title                          : BTM

Language                       : Spanish (Latin America)

Service kind                   : Complete Main

Default                        : Yes

Forced                         : No


Audio #2

ID                             : 3

Format                         : E-AC-3 JOC

Format/Info                    : Enhanced AC-3 with Joint Object Coding

Commercial name                : Dolby Digital Plus with Dolby Atmos

Codec ID                       : A_EAC3

Duration                       : 2 h 34 min

Bit rate mode                  : Constant

Bit rate                       : 768 kb/s

Channel(s)                     : 6 channels

Channel layout                 : L R C LFE Ls Rs

Sampling rate                  : 48.0 kHz

Frame rate                     : 31.250 FPS (1536 SPF)

Compression mode               : Lossy

Stream size                    : 849 MiB (3%)

Title                          : BTM

Language                       : English

Service kind                   : Complete Main

Default                        : No

Forced                         : No

Complexity index               : 16

Number of dynamic objects      : 15

Bed channel count              : 1 channel

Bed channel configuration      : LFE


Text #1

ID                             : 4

Format                         : UTF-8

Codec ID                       : S_TEXT/UTF8

Codec ID/Info                  : UTF-8 Plain Text

Duration                       : 2 h 23 min

Bit rate                       : 39 b/s

Frame rate                     : 0.204 FPS

Count of elements              : 1748

Stream size                    : 41.3 KiB (0%)

Title                          : BTM

Language                       : Spanish (Latin America)

Default                        : No

Forced                         : No


Text #2

ID                             : 5

Format                         : UTF-8

Codec ID                       : S_TEXT/UTF8

Codec ID/Info                  : UTF-8 Plain Text

Duration                       : 2 h 17 min

Bit rate                       : 3 b/s

Frame rate                     : 0.018 FPS

Count of elements              : 151

Stream size                    : 3.21 KiB (0%)

Title                          : BTM

Language                       : Spanish (Latin America)

Default                        : Yes

Forced                         : Yes


Text #3

ID                             : 6

Format                         : UTF-8

Codec ID                       : S_TEXT/UTF8

Codec ID/Info                  : UTF-8 Plain Text

Duration                       : 2 h 16 min

Bit rate                       : 2 b/s

Frame rate                     : 0.017 FPS

Count of elements              : 141

Stream size                    : 2.77 KiB (0%)

Title                          : BTM

Language                       : English

Default                        : No

Forced                         : Yes


Text #4

ID                             : 7

Format                         : UTF-8

Codec ID                       : S_TEXT/UTF8

Codec ID/Info                  : UTF-8 Plain Text

Duration                       : 2 h 22 min

Bit rate                       : 41 b/s

Frame rate                     : 0.204 FPS

Count of elements              : 1739

Stream size                    : 42.9 KiB (0%)

Title                          : BTM

Language                       : English

Default                        : No

Forced                         : No


Text #5

ID                             : 8

Format                         : UTF-8

Codec ID                       : S_TEXT/UTF8

Codec ID/Info                  : UTF-8 Plain Text

Duration                       : 2 h 34 min

Bit rate                       : 58 b/s

Frame rate                     : 0.189 FPS

Count of elements              : 1754

Stream size                    : 66.7 KiB (0%)

Title                          : 繁体中字

Language                       : Chinese

Default                        : Yes

Forced                         : No


Text #6

ID                             : 9

Format                         : UTF-8

Codec ID                       : S_TEXT/UTF8

Codec ID/Info                  : UTF-8 Plain Text

Duration                       : 2 h 34 min

Bit rate                       : 58 b/s

Frame rate                     : 0.189 FPS

Count of elements              : 1754

Stream size                    : 66.7 KiB (0%)

Title                          : 简体中字

Language                       : Chinese

Default                        : Yes

Forced                         : No


推荐使用qBittorrent、uTorrent、BitComet等软件挂机下载,有条件的推荐115或会员软件下载!


小水管制作,下载后请大家留些时间做种,人多力量大,谢谢!


夺宝奇兵5:命运转盘[DIY简繁]Indiana.Jones.And.The.Dial.Of.Destiny.2023.2160p[Ben The Men]-Along(27.70GB)




文章底部单独广告

同类推荐