[MagicStar] 戴卡奥特曼 / ウルトラマンデッカー 特别总集篇01 [WEBDL] [1080p]【生】【Youtube配信版】【附英字】_光遇演出季兑换图,绅士动漫在线导航

HD 1080p from Youtube official channel.
English subtitles added.

General Unique ID                      : 234623837857140489070273010533129356013 (0xB082E851E503B6BE2188006A201582ED) Complete name                  : [MagicStar] Ultraman Decker Special Episode 01 [WEBDL] [1080p] [YOUTUBE].mkv Format                         : Matroska Format version                 : Version 4 File size                      : 521 MiB Duration                       : 29 min 46 s Overall bit rate               : 2 445 kb/s Encoded date                   : UTC 2022-08-13 01:31:45 Writing application            : mkvmerge v50.0.0 ('Awakenings') 64-bit Writing library                : libebml v1.4.0 + libmatroska v1.6.2 Cover                          : Yes Attachments                    : cover.png  Video ID                             : 1 Format                         : AVC Format/Info                    : Advanced Video Codec Format profile                 : [email protected] Format settings                : CABAC / 3 Ref Frames Format settings, CABAC         : Yes Format settings, Reference fra : 3 frames Codec ID                       : V_MPEG4/ISO/AVC Duration                       : 29 min 46 s Bit rate                       : 2 310 kb/s Width                          : 1 920 pixels Height                         : 1 080 pixels Display aspect ratio           : 16:9 Frame rate mode                : Constant Frame rate                     : 23.976 (24000/1001) FPS Color space                    : YUV Chroma subsampling             : 4:2:0 Bit depth                      : 8 bits Scan type                      : Progressive Bits/(Pixel*Frame)             : 0.046 Stream size                    : 492 MiB (94%) Writing library                : x264 core 155 r2901 7d0ff22 Default                        : Yes Forced                         : No Color range                    : Limited Color primaries                : BT.709 Transfer characteristics       : BT.709 Matrix coefficients            : BT.709  Audio ID                             : 2 Format                         : AAC LC Format/Info                    : Advanced Audio Codec Low Complexity Codec ID                       : A_AAC-2 Duration                       : 29 min 46 s Bit rate                       : 128 kb/s Channel(s)                     : 2 channels Channel layout                 : L R Sampling rate                  : 44.1 kHz Frame rate                     : 43.066 FPS (1024 SPF) Compression mode               : Lossy Stream size                    : 27.3 MiB (5%) Language                       : Japanese Default                        : Yes Forced                         : No

[NC-Raws] 勇者斗恶龙 达伊的大冒险 / Dragon Quest - Dai no Daibouken - 90 (CR 1280x720 AVC AAC MKV)

同类推荐